Enlaces Descargas CinemaniaHDD

Enlaces Peliculas Gratis HD Full Mega

PASSWORD PARA EXTRAER ( ESCRIBIR MANUAL- NO COPIAR - REVISAR QUE NO TENGA ESPACIO AL EXTRAER):   cinemaniahdd.com   dpeliculashdmega.org

The Mandalorian (2020) Temporada 02 4K HDR & SDR Latino PUBLICOS

MEGA Full Speed, LIMITA [Encriptado para Gestor]
1
https://mega.nz/#N!FT5SRSKb!AAAAAAAAAADJAsjZhWfl_gAAAAAAAAAAyQLI2YVn5f4=###n=Qe4yRTJS
https://mega.nz/#N!JCInFI6T!AAAAAAAAAABPyHBJfgdWlwAAAAAAAAAAT8hwSX4HVpc=###n=Qe4yRTJS
2
https://mega.nz/#N!dw1AGTqa!E5KTxIuV7QvSsu718oJF9Yort60P9T5qQU8Db_IphsI=###n=wosCHBZZ
https://mega.nz/#N!MotgxBrS!6ubZlJBfzZaMk49LIivln6ApLoPmhgLhAv0OWhNcPoo=###n=wosCHBZZ
3
https://mega.nz/#N!kwAxGCjQ!isBPhmCYdBstxqfYxWzYieSXQsYvVWr4gl2A2xFo0Gc=###n=hhBB1AzS
https://mega.nz/#N!EtRVAa4b!Ur02Kv1Y_tNbVq_AY2lWFUyONswu19s0-nkqL7eTRhw=###n=hhBB1AzS
4
https://mega.nz/#N!lxxzRKhJ!AAAAAAAAAAAsW3ENr4II4QAAAAAAAAAALFtxDa-CCOE=###n=BpAR3AoQ
https://mega.nz/#N!VxoWkK4S!AAAAAAAAAABxU6agrAcjLwAAAAAAAAAAcVOmoKwHIy8=###n=BpAR3AoQ

GOOGLE DRIVE Full Speed, LIMITA
1
http://pastedpelis.club/out/?UY=...aHR
http://pastedpelis.club/out/?Wg=...aHR
2
http://pastedpelis.club/out/?HA=...aHR
http://pastedpelis.club/out/?Uk=...aHR
3
http://pastedpelis.club/out/?w==...aHR
http://pastedpelis.club/out/?w==...aHR
4
http://pastedpelis.club/out/?mI=...aHR
http://pastedpelis.club/out/?UE=...aHR


GOOGLE DRIVE OPCION 2 Full Speed, LIMITA
1
http://pastedpelis.club/out/?0c=...aHR
http://pastedpelis.club/out/?nU=...aHR
2
http://pastedpelis.club/out/?jg=...aHR
http://pastedpelis.club/out/?3I=...aHR
3
http://pastedpelis.club/out/?w==...aHR
http://pastedpelis.club/out/?w==...aHR
4
http://pastedpelis.club/out/?nM=...aHR
http://pastedpelis.club/out/?FY=...aHR

1Fichier LIMITA (Recomendado usar PREMIUM)
1
http://pastedpelis.club/out/?3Vr...aHR
http://pastedpelis.club/out/?jhy...aHR
2
http://pastedpelis.club/out/?zl5...aHR
http://pastedpelis.club/out/?Xk5...aHR
3
http://pastedpelis.club/out/?Dcw...aHR
http://pastedpelis.club/out/?2dk...aHR
4
http://pastedpelis.club/out/?TNq...aHR
http://pastedpelis.club/out/?Wc5...aHR

UptoBox LIMITA (Recomendado usar PREMIUM)
1
http://pastedpelis.club/out/?2w=...aHR
http://pastedpelis.club/out/?WM=...aHR
2
http://pastedpelis.club/out/?XY=...aHR
http://pastedpelis.club/out/?XE=...aHR
4
http://pastedpelis.club/out/?3Q=...aHR
http://pastedpelis.club/out/?Xk=...aHR
MEGA Full Speed, LIMITA [Encriptado para Gestor]
1
https://mega.nz/#N!VS4AFBBR!AAAAAAAAAAAn2qctWLPApgAAAAAAAAAAJ9qnLVizwKY=###n=Qe4yRTJS
https://mega.nz/#N!dDRRgSba!AAAAAAAAAADDKu-0sx407AAAAAAAAAAAwyrvtLMeNOw=###n=Qe4yRTJS
2
https://mega.nz/#N!g01wEbRB!LOkHvEZgHQYkvWSWNaK6L-dpJx0IDgO3D9c08z_Jys8=###n=wosCHBZZ
https://mega.nz/#N!xw800LLR!U86KD-lfdRrUC-MLqbsrEa0YQDgaUpKwWpUF_Qp8XZ8=###n=wosCHBZZ
3
https://mega.nz/#N!Y5J1Fa5L!eRPhPv8ZTHUEbvL5Xs8FbTMuwmxaIuhJSCSgZLEBSH0=###n=hhBB1AzS
https://mega.nz/#N!loQFRQRa!KJ5XDtmtiENXcC7H2FVSEWm4yhiMGI8qox50pmtjFFk=###n=hhBB1AzS
4
https://mega.nz/#N!o0JAUBxB!AAAAAAAAAABsiubEfngHKAAAAAAAAAAAbIrmxH54Byg=###n=BpAR3AoQ
https://mega.nz/#N!00gBVABD!AAAAAAAAAAC-hKBeaRn-tQAAAAAAAAAAvoSgXmkZ_rU=###n=BpAR3AoQ

GOOGLE DRIVE Full Speed, LIMITA
1
http://pastedpelis.club/out/?Es=...aHR
http://pastedpelis.club/out/?TY=...aHR
2
http://pastedpelis.club/out/?Wc=...aHR
http://pastedpelis.club/out/?XA=...aHR
3
http://pastedpelis.club/out/?w==...aHR
http://pastedpelis.club/out/?w==...aHR
4
http://pastedpelis.club/out/?zk=...aHR
http://pastedpelis.club/out/?mQ=...aHR

GOOGLE DRIVE OPCION 2 Full Speed, LIMITA
1
http://pastedpelis.club/out/?3M=...aHR
http://pastedpelis.club/out/?Gg=...aHR
2
http://pastedpelis.club/out/?1Y=...aHR
http://pastedpelis.club/out/?Eo=...aHR
3
http://pastedpelis.club/out/?w==...aHR
http://pastedpelis.club/out/?w==...aHR
4
http://pastedpelis.club/out/?Dk=...aHR
http://pastedpelis.club/out/?jU=...aHR


1Fichier LIMITA (Recomendado usar PREMIUM)
1
http://pastedpelis.club/out/?3Ex...aHR
http://pastedpelis.club/out/?Dg5...aHR
2
http://pastedpelis.club/out/?Gc2...aHR
http://pastedpelis.club/out/?nZq...aHR
3
http://pastedpelis.club/out/?Gtl...aHR
http://pastedpelis.club/out/?2d2...aHR
4
http://pastedpelis.club/out/?zlp...aHR
http://pastedpelis.club/out/?Xo0...aHR

UptoBox LIMITA (Recomendado usar PREMIUM)
1
http://pastedpelis.club/out/?Xc=...aHR
http://pastedpelis.club/out/?W0=...aHR
2
http://pastedpelis.club/out/?zk=...aHR
http://pastedpelis.club/out/?W8=...aHR
4
http://pastedpelis.club/out/?Tc=...aHR
http://pastedpelis.club/out/?mc=...aHR
The Mandalorian S02E01 (2020) WEB UHD SDR Latino[CMHDD].mkv
Format : Matroska
Format version : Version 4
File size : 7.48 GiB
Duration : 54 min 4 s
Overall bit rate : 19.8 Mb/s
Movie name : CinemaniaHDD.Net
Encoded date : UTC 2020-10-31 01:13:56
Writing application : mkvmerge v51.0.0 ('I Wish') 64-bit
Writing library : libebml v1.4.0 + libmatroska v1.6.2
Attachments : CINEMANIAHD.png

Video
ID : 1
Format : HEVC
Format/Info : High Efficiency Video Coding
Format profile : Main@L5@High
Codec ID : V_MPEGH/ISO/HEVC
Duration : 51 min 51 s
Bit rate : 19.7 Mb/s
Width : 3 840 pixels
Height : 2 160 pixels
Display aspect ratio : 16:9
Frame rate mode : Variable
Frame rate : 23.976 FPS
Color space : YUV
Chroma subsampling : 4:2:0
Bit depth : 8 bits
Bits/(Pixel*Frame) : 0.099
Stream size : 7.15 GiB (96%)
Title : Web 2160p SDR [CinemaniaHDD]
Writing library : x265 3.4:[Linux][GCC 7.5.0][64 bit] 8bit+10bit+12bit
Encoding settings : cpuid=1111039 / frame-threads=1 / wpp / no-pmode / no-pme / no-psnr / no-ssim / log-level=2 / input-csp=1 / input-res=3840x2160 / interlace=0 / total-frames=0 / level-idc=50 / high-tier=1 / uhd-bd=0 / ref=2 / no-allow-non-conformance / repeat-headers / annexb / no-aud / no-hrd / info / hash=0 / no-temporal-layers / no-open-gop / min-keyint=48 / keyint=48 / gop-lookahead=0 / bframes=4 / b-adapt=0 / b-pyramid / bframe-bias=0 / rc-lookahead=48 / lookahead-slices=8 / scenecut=0 / hist-scenecut=0 / radl=0 / no-splice / no-intra-refresh / ctu=32 / min-cu-size=8 / no-rect / no-amp / max-tu-size=16 / tu-inter-depth=2 / tu-intra-depth=2 / limit-tu=0 / rdoq-level=1 / dynamic-rd=0.00 / no-ssim-rd / signhide / no-tskip / nr-intra=0 / nr-inter=0 / no-constrained-intra / no-strong-intra-smoothing / max-merge=3 / limit-refs=1 / no-limit-modes / me=1 / subme=2 / merange=44 / temporal-mvp / no-frame-dup / no-hme / weightp / no-weightb / no-analyze-src-pics / deblock=0:0 / no-sao / no-sao-non-deblock / rd=4 / selective-sao=0 / early-skip / rskip / no-fast-intra / no-tskip-fast / no-cu-lossless / b-intra / no-splitrd-skip / rdpenalty=1 / psy-rd=1.60 / psy-rdoq=5.00 / no-rd-refine / no-lossless / cbqpoffs=0 / crqpoffs=0 / rc=abr / bitrate=20000 / qcomp=0.75 / qpstep=4 / stats-write=0 / stats-read=0 / vbv-maxrate=24000 / vbv-bufsize=40000 / vbv-init=0.9 / ipratio=1.40 / pbratio=1.30 / aq-mode=3 / aq-strength=1.00 / no-cutree / zone-count=0 / no-strict-cbr / qg-size=32 / no-rc-grain / qpmax=69 / qpmin=0 / no-const-vbv / sar=1 / overscan=0 / videoformat=5 / range=0 / colorprim=1 / transfer=1 / colormatrix=1 / chromaloc=0 / display-window=0 / cll=0,0 / min-luma=0 / max-luma=255 / log2-max-poc-lsb=8 / vui-timing-info / vui-hrd-info / slices=1 / no-opt-qp-pps / no-opt-ref-list-length-pps / no-multi-pass-opt-rps / scenecut-bias=0.00 / hist-threshold=0.01 / no-opt-cu-delta-qp / no-aq-motion / no-hdr10 / no-hdr10-opt / no-dhdr10-opt / no-idr-recovery-sei / analysis-reuse-level=0 / analysis-save-reuse-level=0 / analysis-load-reuse-level=0 / scale-factor=0 / refine-intra=0 / refine-inter=0 / refine-mv=1 / refine-ctu-distortion=0 / no-limit-sao / ctu-info=0 / no-lowpass-dct / refine-analysis-type=0 / copy-pic=1 / max-ausize-factor=1.0 / no-dynamic-refine / no-single-sei / no-hevc-aq / no-svt / no-field / qp-adaptation-range=1.00 / no-scenecut-aware-qpconformance-window-offsets / right=0 / bottom=0
Default : Yes
Forced : No
Color range : Limited
Color primaries : BT.709
Transfer characteristics : BT.709
Matrix coefficients : BT.709

Audio #1
ID : 2
Format : E-AC-3
Format/Info : Enhanced AC-3
Commercial name : Dolby Digital Plus
Codec ID : A_EAC3
Duration : 54 min 4 s
Bit rate mode : Constant
Bit rate : 256 kb/s
Channel(s) : 6 channels
Channel layout : L R C LFE Ls Rs
Sampling rate : 48.0 kHz
Frame rate : 31.250 FPS (1536 SPF)
Compression mode : Lossy
Stream size : 99.0 MiB (1%)
Title : Español Latino [CinemaniaHDD]
Language : Spanish
Service kind : Complete Main
Default : Yes
Forced : Yes

Audio #2
ID : 3
Format : E-AC-3
Format/Info : Enhanced AC-3
Commercial name : Dolby Digital Plus
Codec ID : A_EAC3
Duration : 51 min 51 s
Bit rate mode : Constant
Bit rate : 192 kb/s
Channel(s) : 6 channels
Channel layout : L R C LFE Ls Rs
Sampling rate : 48.0 kHz
Frame rate : 31.250 FPS (1536 SPF)
Compression mode : Lossy
Stream size : 71.2 MiB (1%)
Title : Ingles [CinemaniaHDD]
Language : English
Service kind : Complete Main
Default : No
Forced : No

Audio #3
ID : 4
Format : AC-3
Format/Info : Audio Coding 3
Commercial name : Dolby Digital
Codec ID : A_AC3
Duration : 54 min 4 s
Bit rate mode : Constant
Bit rate : 448 kb/s
Channel(s) : 6 channels
Channel layout : L R C LFE Ls Rs
Sampling rate : 48.0 kHz
Frame rate : 31.250 FPS (1536 SPF)
Compression mode : Lossy
Stream size : 173 MiB (2%)
Title : Español Latino AC3 [CinemaniaHDD]
Language : Spanish
Service kind : Complete Main
Default : No
Forced : No

Text #1
ID : 5
Format : UTF-8
Codec ID : S_TEXT/UTF8
Codec ID/Info : UTF-8 Plain Text
Duration : 8 min 38 s
Bit rate : 0 b/s
Count of elements : 2
Stream size : 57.0 Bytes (0%)
Title : Forzados-SRT [CinemaniaHDD]
Language : Spanish
Default : Yes
Forced : Yes

Text #2
ID : 6
Format : UTF-8
Codec ID : S_TEXT/UTF8
Codec ID/Info : UTF-8 Plain Text
Duration : 51 min 37 s
Bit rate : 27 b/s
Count of elements : 343
Stream size : 10.5 KiB (0%)
Title : Español-SRT [CinemaniaHDD]
Language : Spanish
Default : No
Forced : No

Text #3
ID : 7
Format : UTF-8
Codec ID : S_TEXT/UTF8
Codec ID/Info : UTF-8 Plain Text
Duration : 48 min 25 s
Bit rate : 43 b/s
Count of elements : 481
Stream size : 15.4 KiB (0%)
Title : Ingles-SRT [CinemaniaHDD]
Language : English
Default : No
Forced : No


Visitas: 1783